Terje Rypdal - Terje Rypdal (1971) [ECM 1016]

Comentarios de uploaders sobre discos publicados.
Avatar de Usuario
meszrum
Aprendiz de Músico
Mensajes: 2
Registrado: 04-06-2006 14:10

Terje Rypdal - Terje Rypdal (1971) [ECM 1016]

Mensaje sin leerpor meszrum » 30-12-2007 13:59

Terje Rypdal (1971)


Imagen



Terje Rypdal | ECM

Terje Rypdal has long had an unusual style, mixing together elements more commonly found in new age and rock than in jazz; yet he is also an adventurous improviser. Associated with the ECM label since the early '70s, Rypdal's playing is definitely an acquired taste, using space and dense sounds in an unusual manner. Classically trained as a pianist, Rypdal was largely self-taught on guitar and originally most influenced by Jimi Hendrix. He attended Oslo University, where he was taught the Lydian chromatic concept of tonal organization by its author, George Russell. Rypdal played with Russell for a time and started an association with Jan Garbarek in the late '60s. He formed the group Odyssey in 1972, and has led various small groups since the mid-'70s. An important guitarist and composer in Norway, Terje Rypdal gained a cult following in the United States. He recorded steadily for ECM since 1972 (using such sidemen at times as Garbarek, pianist Bobo Stenson, trumpeter Palle Mikkelborg, bassist Miroslav Vitous, drummer Jack DeJohnette, and cellist David Darling). His two earlier sessions (for the Karusell label in 1968, and a notable 1969 Baden-Baden, Germany, concert put out by MPS) are more difficult to find.




Terje Rypdal


Terje Rypdal guitar, flute
Inger Lise Rypdal voice
Ekkehard Fintl oboe, English horn
Jan Garbarek tenor saxophone, flute, clarinet
Bobo Stenson electric piano
Tom Halversen electric piano
Arild Andersen electric bass, double-bass
Bjørnar Andresen electric bass
Jon Christensen percussion


Keep It Like That - Tight
Rainbow
Electric Fantasy
Lontano II
Tough Enough


Recorded August 1971
ECM 1016



*EAC (secure mode / offset correction)
*FLAC
*237 MB
*high quality covers
*another chapter of my exceptional life




Código: Seleccionar todo

EAC extraction logfile from 24. December 2007, 22:06 for CD
Terje Rypdal / Terje Rypdal

Used drive  : ASUS    DRW-1608P2S   Adapter: 0  ID: 3
Read mode   : Secure with NO C2, accurate stream, disable cache
Read offset correction : 48
Overread into Lead-In and Lead-Out : Yes

Used output format : C:\Program Files\Exact Audio Copy\Plugins\flac.exe   (User Defined Encoder)
                     320 kBit/s
                     Additional command line options :  -V -8 -T "artist=%a" -T "title=%t" -T "album=%g" -T "date=%y" -T "tracknumber=%n" -T "genre=%m" -T "comment=EAC 095pb5 / Flac 1.1.2 -8" %s

Other options      :
    Fill up missing offset samples with silence : Yes
    Delete leading and trailing silent blocks : No
    Native Win32 interface for Win NT & 2000


Track  1
     Filename D:\Audio\lossless\Terje Rypdal - Terje Rypdal (1971) [FLAC]\01 - Keep It Like That - Tight.wav

     Pre-gap length  0:00:02.33

     Peak level 98.4 %
     Track quality 100.0 %
     Test CRC 6761BD90
     Copy CRC 6761BD90
     Copy OK

Track  2
     Filename D:\Audio\lossless\Terje Rypdal - Terje Rypdal (1971) [FLAC]\02 - Rainbow.wav

     Pre-gap length  0:00:04.50

     Peak level 60.1 %
     Track quality 99.9 %
     Test CRC 11F93920
     Copy CRC 11F93920
     Copy OK

Track  3
     Filename D:\Audio\lossless\Terje Rypdal - Terje Rypdal (1971) [FLAC]\03 - Electric Fantasy.wav

     Pre-gap length  0:00:04.35

     Peak level 98.4 %
     Track quality 100.0 %
     Test CRC 29A98FFC
     Copy CRC 29A98FFC
     Copy OK

Track  4
     Filename D:\Audio\lossless\Terje Rypdal - Terje Rypdal (1971) [FLAC]\04 - Lontano II.wav

     Pre-gap length  0:00:03.45

     Peak level 68.7 %
     Track quality 99.9 %
     Test CRC BE3DB43C
     Copy CRC BE3DB43C
     Copy OK

Track  5
     Filename D:\Audio\lossless\Terje Rypdal - Terje Rypdal (1971) [FLAC]\05 - Tough Enough.wav

     Pre-gap length  0:00:04.00

     Peak level 98.4 %
     Track quality 100.0 %
     Test CRC 21A73F8D
     Copy CRC 21A73F8D
     Copy OK

No errors occured


End of status report

the fern

Avatar de Usuario
ThAdorno
Director/a de Orquesta
Mensajes: 386
Registrado: 18-12-2006 0:24

Mensaje sin leerpor ThAdorno » 30-12-2007 17:32

Thank you very much

Th.

usnlgwe
Aprendiz de Músico
Mensajes: 18
Registrado: 24-10-2011 5:17
antispam: 1756

Re: Terje Rypdal - Terje Rypdal (1971) [ECM 1016]

Mensaje sin leerpor usnlgwe » 24-10-2011 5:37

This boot was created to be very comfortable as well as chic. The light and feathery EVA outsole will give your feet support for many hours.ugg boots clearance Theres also a genuine sheepskin sock that keeps moisture out so your feet will stay dry. The Classic Short Sparkles is a sensational choice for evening wear. It is a boot that will grab everyones attention and give your feet protection all at the same time.

Wing21
Aprendiz de Músico
Mensajes: 2
Registrado: 05-01-2012 12:11
antispam: 1756

Re: Terje Rypdal - Terje Rypdal (1971) [ECM 1016]

Mensaje sin leerpor Wing21 » 05-01-2012 13:58

The best time to learn about pass4sure HP0-S30 is before you're in the thick of things. Wise readers will keep reading to earn some valuable experience while it's still free. Having been fascinated by Terje Rypdal’s work on Afric Pepperbird, I was eager to listen to the record of his debut as a band leader, pass4sure HP0-S32 but also suspicious with a vague fear that his name written at the center of the cover would have induced any guitarist to put himself at the foreground with such an ardor to spoil the kind of balance indispensable to the magic of an album like A.P. pass4sure HP0-Y30 This doubt of mine proved to be completely unfounded: Terje plays here, too, with intelligence and parsimony, almost giving the impression that the role in which he is interested is not that of giving the sound its rudimentary form, but rather of choosing the tone with which it must be lit, pass4sure HP0-Y36 to shade its colors, to adorn it with the right atmosphere.


Volver a “Uploaders: Novedades”

¿Quién está conectado?

Usuarios navegando por este Foro: No hay usuarios registrados visitando el Foro y 3 invitados