Arvo Pärt - In Principio (2009) [FLAC] {ECM New Series 2050}

Comentarios de uploaders sobre discos publicados.
Avatar de Usuario
meszrum
Aprendiz de Músico
Mensajes: 2
Registrado: 04-06-2006 14:10

Arvo Pärt - In Principio (2009) [FLAC] {ECM New Series 2050}

Mensaje sin leerpor meszrum » 12-06-2009 16:57

Arvo Pärt - In Principio (2009)

Imagen


Arvo Pärt
In Principio | ECM New Series

"His music makes the basic human need for a link between aesthetics, ethics and spirituality clear and perceivable – a need so often subordinated to politics and economics in our society." Thus the words with which Arvo Pärt was awarded the International Bridge Prize of the twin cities Görlitz and Zgorzelec in 2007. His new CD, ‘In Principio’, demonstrates the extent to which his more recent music manifests this very link. Twenty-five years ago ECM launched its New Series with Pärt’s Tabula Rasa. Now its twelfth Pärt album, again produced by Manfred Eicher, presents six compositions of various lengths spanning a period of almost ten years. Four of the pieces appear here for the first time on disc. The meticulous performances were recorded by Estonian ensembles under the baton of Tōnu Kaljuste, a conductor well-versed in Pärt’s music for many years, and accompanied by the composer every step of the way.

The range is wide: Pärt creates masterly syntheses of the expressive resources he has pursued ever since his personal style emerged in the mid-1970s. The intimate and the monumental co-exist; streams of chords flow towards dramatic eruptions. The inflection of his pieces is always based on their underlying emotive significance. In Principio is a five-movement setting of the opening verses of the Gospel of John: "In the beginning was the Word". The elegiac orchestral piece "La Sindone" conjures up the image of Christ on the Shroud of Turin. "Cecilia, vergine romana", written to celebrate the sacred year 2000 in Rome, is devoted to the martyrdom of the patron saint of music. A serene plea for peace, memories of a deceased friend and contemplation of the ‘peaks and troughs’ of life: these are the emotional way-stations of the three relatively short pieces here, encapsulating the magic of Pärt’s music.



Estonian Philharmonic Chamber Choir
Estonian National Symphony Orchestra
Tallinn Chamber Orchestra
Tõnu Kaljuste
conductor

In principio (2003)
for mixed choir and orchestra



I. In principio erat Verbum (John 1:1–5)
II. Fuit homo missus a Deo (John 1:6–8)
III. Erat lux vera (John 1:9–11)
IV. Quotquot autem acceperunt sum (John 1:12–13)
V. Et Verbum caro factum est (John 1:14)

La Sindone (2006)
for orchestra

Cecilia, vergine romana (2000, rev. 2002)
for mixed choir and orchestra

Da Pacem Domine (2004/07)
for mixed choir and orchestra

Mein Weg (1989/99, rev. 2000)
for 14 strings and percussion

Für Lennart in memoriam (2006)
for string orchestra



Recorded June 2008 and May 2007
ECM New Series 2050


*EAC (secure mode / offset correction)
*FLAC
*297 MB
*high quality covers




Código: Seleccionar todo

EAC extraction logfile from 13. April 2009, 20:28 for CD
Arvo Part / In Principio

Used drive  : ASUS    DRW-1608P2S   Adapter: 0  ID: 3
Read mode   : Secure with NO C2, accurate stream, disable cache
Read offset correction : 48
Overread into Lead-In and Lead-Out : Yes

Used output format : C:\Program Files\Exact Audio Copy\Plugins\flac.exe   (User Defined Encoder)
                     320 kBit/s
                     Additional command line options :  -V -8 -T "artist=%a" -T "title=%t" -T "album=%g" -T "date=%y" -T "tracknumber=%n" -T "genre=%m" -T "comment=EAC 095pb5 / Flac 1.1.2 -8" %s

Other options      :
    Fill up missing offset samples with silence : Yes
    Delete leading and trailing silent blocks : No
    Native Win32 interface for Win NT & 2000


Track  1
     Filename D:\Audio\lossless\Arvo Part - In Principio (2009) [FLAC]\01 - I. In principio erat Verbum (John 1-1-5).wav

     Pre-gap length  0:00:02.00

     Peak level 91.4 %
     Track quality 99.9 %
     Test CRC 7B81BE5F
     Copy CRC 7B81BE5F
     Copy OK

Track  2
     Filename D:\Audio\lossless\Arvo Part - In Principio (2009) [FLAC]\02 - II. Fuit homo missus a Deo (John 1-6-8).wav

     Peak level 40.5 %
     Track quality 100.0 %
     Test CRC 0DFCB6FD
     Copy CRC 0DFCB6FD
     Copy OK

Track  3
     Filename D:\Audio\lossless\Arvo Part - In Principio (2009) [FLAC]\03 - III. Erat lux vera (John 1-9-11).wav

     Peak level 39.5 %
     Track quality 100.0 %
     Test CRC 0F197335
     Copy CRC 0F197335
     Copy OK

Track  4
     Filename D:\Audio\lossless\Arvo Part - In Principio (2009) [FLAC]\04 - IV. Quotquot autem acceperunt sum (John 1-12-13).wav

     Peak level 74.5 %
     Track quality 100.0 %
     Test CRC D6F4983D
     Copy CRC D6F4983D
     Copy OK

Track  5
     Filename D:\Audio\lossless\Arvo Part - In Principio (2009) [FLAC]\05 - V. Et Verbum caro factum est (John 1-14).wav

     Peak level 81.0 %
     Track quality 100.0 %
     Test CRC D6CD1FC8
     Copy CRC D6CD1FC8
     Copy OK

Track  6
     Filename D:\Audio\lossless\Arvo Part - In Principio (2009) [FLAC]\06 - La Sindone (2005).wav

     Pre-gap length  0:00:06.15

     Peak level 99.9 %
     Track quality 99.9 %
     Test CRC 0A05BB46
     Copy CRC 0A05BB46
     Copy OK

Track  7
     Filename D:\Audio\lossless\Arvo Part - In Principio (2009) [FLAC]\07 - Cecilia, vergine romana (2000, rev. 2002).wav

     Pre-gap length  0:00:09.42

     Peak level 91.1 %
     Track quality 100.0 %
     Test CRC 2A68F91E
     Copy CRC 2A68F91E
     Copy OK

Track  8
     Filename D:\Audio\lossless\Arvo Part - In Principio (2009) [FLAC]\08 - Da pacem Domine (2004,07).wav

     Pre-gap length  0:00:09.12

     Peak level 37.3 %
     Track quality 100.0 %
     Test CRC A1D11E0B
     Copy CRC A1D11E0B
     Copy OK

Track  9
     Filename D:\Audio\lossless\Arvo Part - In Principio (2009) [FLAC]\09 - Mein Weg (1989,99, rev. 2000).wav

     Pre-gap length  0:00:07.46

     Peak level 70.9 %
     Track quality 99.9 %
     Test CRC 4921176D
     Copy CRC 4921176D
     Copy OK

Track 10
     Filename D:\Audio\lossless\Arvo Part - In Principio (2009) [FLAC]\10 - Fur Lennart in memoriam (2006).wav

     Pre-gap length  0:00:07.05

     Peak level 20.8 %
     Track quality 100.0 %
     Test CRC 9D5FD777
     Copy CRC 9D5FD777
     Copy OK

No errors occured


End of status report





Código: Seleccionar todo

e**k://|file|Arvo.Part.-.In.Principio.(2009).{ECM.2050}.[FLAC].rar|311984326|FD40A329AAB3BD274BF969ED8BA0DE90|h=I2DOKQ76KECDTQA5YGRWC6JB756E2OH5|/

enjoy!
the fern

usnlgwe
Aprendiz de Músico
Mensajes: 18
Registrado: 24-10-2011 5:17
antispam: 1756

Re: Arvo Pärt - In Principio (2009) [FLAC] {ECM New Series 2050}

Mensaje sin leerpor usnlgwe » 24-10-2011 5:44

nike air max 95June is the time of yr when many youth football packages pass out their equipment for the upcoming time. There are generally a couple of possibilities to get your gear. Most organizations recycle their gear yr in and year out, but a several elite plans order new devices each 12 months.
Most organizations give at a minimal the helmet, shoulder pads and some style of uniform. The helmets will need to be licensed and reconditioned each other year and every single helmet will need to have a sticker with the date the certification is superior as a result of. The certification is ideal if accomplished from a trustworthy enterprise such as Ridell or Shutt. Make positive to test the helmet for this verification sticker and do not accept any helmet that does not have this on it.air max trainers I have heard some of the organizations with revenue buy new helmets every last yr.

Neon21
Aprendiz de Músico
Mensajes: 3
Registrado: 05-01-2012 14:00
antispam: 1756

Re: Arvo Pärt - In Principio (2009) [FLAC] {ECM New Series 2050}

Mensaje sin leerpor Neon21 » 05-01-2012 14:11

I should get fine resource soon. What I am searching for is adolescent humans of access in our community pass4sure HP0-Y37. I am alive on ambience up an Advisory Council that will serve as consultants and connectors for the project pass4sure HP2-K21. I would adulation to acquisition a (or several) motivated, affiliated adolescent humans from the association who affliction about the affair of advantageous sexuality pass4sure 000-104. Adolescent parents would be a plus! Part of the access that Real Life. Real Talk. takes is that we charge non-traditional partners, pass4sure 000-105 including the business community, to accouterment this issue. We would get advantage from this great information.


Volver a “Uploaders: Novedades”

¿Quién está conectado?

Usuarios navegando por este Foro: No hay usuarios registrados visitando el Foro y 2 invitados